Subtitles on USB « My Humax Forum

My Humax Forum » Other Humax Products

Subtitles on USB

(10 posts)
  1. User has not uploaded an avatar

    Barnaby2017

    new member
    Joined: Nov '18
    Posts: 3

    offline

    Have a new HDR3000T so far PVR unable to see subtitles on USB with material from an external source

    Wed 7 Nov 2018 7:27:31 #1 |
  2. grahamlthompson

    grahamlthompson

    special member
    Joined: Feb '11
    Posts: 9,731

    online

    Does any of the files you are using actually have a subtitle track ?

    You can check using the tree view option in Media Info

    https://mediaarea.net/en/MediaInfo/Download

    Welcome to our forum.

    We don't have this model in the UK guessing you must be down under

    Wed 7 Nov 2018 10:42:34 #2 |
  3. Trev

    Trev

    senior member
    Joined: Apr '18
    Posts: 51

    offline

    The clue here is in his profile GLT ;=)

    Wed 7 Nov 2018 12:14:52 #3 |
  4. User has not uploaded an avatar

    Barnaby2017

    new member
    Joined: Nov '18
    Posts: 3

    offline

    Hi Trev.
    Not sure what you mean.

    Wed 7 Nov 2018 12:33:36 #4 |
  5. grahamlthompson

    grahamlthompson

    special member
    Joined: Feb '11
    Posts: 9,731

    online

    Barnaby2017 - 17 seconds ago  » 
    Hi Trev.
    Not sure what you mean.

    Your profile states your location as Australia.

    Wed 7 Nov 2018 12:34:36 #5 |
  6. User has not uploaded an avatar

    Barnaby2017

    new member
    Joined: Nov '18
    Posts: 3

    offline

    And?

    Wed 7 Nov 2018 12:38:51 #6 |
  7. grahamlthompson

    grahamlthompson

    special member
    Joined: Feb '11
    Posts: 9,731

    online

    Barnaby2017 - 5 minutes ago  » 
    And?

    https://myhumax.org/forum/topic/subtitles-on-usb#post-69436

    Because this is a UK forum and no one will have your box so no way to find out how to add subtitles to a external file. UK subtitling uses the DVB standard. Even if someone brought one here from Australia without a firmware upgrade it wouldn't work. UK digital DVB-T/T2 digital TV uses a different channel spacing within each multiplex to Australia. You should ask on a local forum or speak to Humax Australia.

    Wed 7 Nov 2018 12:48:52 #7 |
  8. Luke

    Luke

    special member
    Joined: Apr '11
    Posts: 1,008

    offline

    Barnaby2017 - 9 minutes ago  » 
    And?

    Trev's comment was directed at grahamlthompson. GLT are the initials of grahamlthompson.

    On the whole the members of this forum are in the UK and that is why your Nationality was mentioned.

    We don't have the 2tune in the UK. The nearest we have is the FVP-4000T and FVP-5000T (same model two names!).
    I haven't that model but GLT has.

    My suspicion is that it is like previous Humax models and that it only provides subtitle capability as required to support the broadcast standard.

    Wed 7 Nov 2018 12:57:26 #8 |
  9. grahamlthompson

    grahamlthompson

    special member
    Joined: Feb '11
    Posts: 9,731

    online

    Luke - 18 minutes ago  » 

    Barnaby2017 - 9 minutes ago  » 
    And?

    Trev's comment was directed at grahamlthompson. GLT are the initials of grahamlthompson.
    On the whole the members of this forum are in the UK and that is why your Nationality was mentioned.
    We don't have the 2tune in the UK. The nearest we have is the FVP-4000T and FVP-5000T (same model two names!).
    I haven't that model but GLT has.
    My suspicion is that it is like previous Humax models and that it only provides subtitle capability as required to support the broadcast standard.

    Hi Luke I could try a transport stream file with subtitles on my 5000T imported from a Foxsat-hdr. Suspect the simple media player software wont't have any way to turn them on. Nor will there be a way to switch the audio track to the MP2 Audio described option.

    Going to try this file

    General
    ID : 1 (0x1)
    Complete name : D:\Test Dr Who\Doctor Who_20121225_1713.ts
    Format : BDAV
    Format/Info : Blu-ray Video
    File size : 3.29 GiB
    Duration : 1 h 1 min
    Overall bit rate mode : Variable
    Overall bit rate : 7 625 kb/s
    FileExtension_Invalid : m2ts mts ssif

    Video
    ID : 5400 (0x1518)
    Menu ID : 6941 (0x1B1D)
    Format : AVC
    Format/Info : Advanced Video Codec
    Format profile : High@L4
    Format settings, CABAC : Yes
    Format settings, RefFrames : 4 frames
    Codec ID : 27
    Duration : 1 h 1 min
    Bit rate : 6 862 kb/s
    Width : 1 920 pixels
    Height : 1 080 pixels
    Display aspect ratio : 16:9
    Frame rate : 25.000 FPS
    Color space : YUV
    Chroma subsampling : 4:2:0
    Bit depth : 8 bits
    Scan type : MBAFF
    Scan type, store method : Interleaved fields
    Scan order : Top Field First
    Bits/(Pixel*Frame) : 0.132
    Stream size : 2.96 GiB (90%)
    Color range : Limited
    Color primaries : BT.709
    Transfer characteristics : BT.709
    Matrix coefficients : BT.709

    Audio #1
    ID : 5401 (0x1519)
    Menu ID : 6941 (0x1B1D)
    Format : AC-3
    Format/Info : Audio Coding 3
    Format settings, Endianness : Big
    Codec ID : 6
    Duration : 1 h 1 min
    Bit rate mode : Constant
    Bit rate : 192 kb/s
    Channel(s) : 2 channels
    Channel positions : Front: L R
    Sampling rate : 48.0 kHz
    Frame rate : 31.250 FPS (1536 SPF)
    Bit depth : 16 bits
    Compression mode : Lossy
    Delay relative to video : -844 ms
    Stream size : 84.9 MiB (3%)
    Language : English
    Service kind : Complete Main

    Audio #2
    ID : 5402 (0x151A)
    Menu ID : 6941 (0x1B1D)
    Format : MPEG Audio
    Format version : Version 1
    Format profile : Layer 2
    Codec ID : 3
    Duration : 1 h 1 min
    Bit rate mode : Constant
    Bit rate : 256 kb/s
    Channel(s) : 2 channels
    Sampling rate : 48.0 kHz
    Compression mode : Lossy
    Delay relative to video : -828 ms
    Stream size : 113 MiB (3%)
    Language : nar

    Text
    ID : 5404 (0x151C)
    Menu ID : 6941 (0x1B1D)
    Format : DVB Subtitle
    Codec ID : 6
    Duration : 1 h 1 min
    Delay relative to video : 2 s 100 ms
    Language : English

    Wed 7 Nov 2018 13:22:54 #9 |
  10. grahamlthompson

    grahamlthompson

    special member
    Joined: Feb '11
    Posts: 9,731

    online

    Result as expected - no issue with video. Sub option displayed under progress bar is not accessible. SUB button on remote says no subtitles. AD button on remote says no audio description available.

    Perhaps a file copied from HD-FOX-T2 might work (AAC audio rather than ac3).

    Wed 7 Nov 2018 13:35:43 #10 |

RSS feed for this topic

Reply

You must log in to post.